#TITLE:Neko Mimi Mode;
#SUBTITLE:- Tsukuyomi -Moon Phase- 1st Opening;
#ARTIST:Dimitri From Paris;
#TITLETRANSLIT:;
#SUBTITLETRANSLIT:;
#ARTISTTRANSLIT:;
#CREDIT:Yume Dan 2nd;
#BANNER:Neko Mimi Mode.png;
#BACKGROUND:Neko Mimi Mode-bg.png;
#LYRICSPATH:Neko Mimi Mode.lrc;
#CDTITLE:CDTitle.png;
#MUSIC:Neko Mimi Mode.ogg;
#OFFSET:-0.999;
#SAMPLESTART:64.640;
#SAMPLELENGTH:18.040;
#SELECTABLE:YES;
#BPMS:0.000=105.550,144.000=52.740;
#STOPS:;
#BGCHANGES:8.000=Neko Mimi Mode.avi=1.000=0=0=0,
99999=-nosongbg-=1.000=0=0=0 // don't automatically add -songbackground-
;
// cache tags:
#FIRSTBEAT:8.000;
#LASTBEAT:145.000;
#SONGFILENAME:songs/Otaku's Dream 3rd Anime Mix/[Kreton] Neko Mimi Mode - Tsukuyomi -Moon Phase- OP/Neko Mimi Mode.sm;
#HASMUSIC:1;
#HASBANNER:1;
#MUSICLENGTH:91.036;
// end cache tags

//---------------dance-single - Kreton----------------
#NOTES:
     dance-single:
     Kreton:
     Easy:
     2:
     0.132,0.159,0.000,0.044,0.000,80.000,0.000,4.000,0.000,0.000:
0000
0000
0000
0000
,
0000
0000
0000
0000
,
0000
0000
0000
0000
,
0000
0000
0000
0000
,
0100
0000
0001
0000
,
2000
0000
0000
3000
,
0100
0000
1000
0000
,
0020
0000
0000
0030
,
1000
0000
0010
0000
,
0200
0000
0000
0300
,
0001
0000
0100
0000
,
0002
0000
0000
0003
,
0000
1000
0100
1000
,
0000
0001
0010
0100
,
0000
0010
0100
0010
,
0000
1000
0001
1000
,
0000
0010
0100
0010
,
0000
1000
0000
0000
,
0000
0001
0001
0000
,
1000
0100
1000
0000
,
0010
0010
0010
0000
,
1000
0010
0000
0000
,
0100
0100
0100
0010
,
1000
0010
0100
0000
,
0100
0100
0100
0010
,
1000
0010
0100
0000
,
0010
0010
0010
0000
,
0000
0000
0000
0000
,
0000
1000
0010
0100
,
0000
0001
0100
0001
,
0000
1000
0010
0100
,
0000
0001
0010
0001
,
0000
1000
0010
0100
,
0000
0001
0100
0010
,
0000
1000
0001
1000
,
0000
0010
0100
0001
,
0000
1000
0000
0000
;

//---------------dance-single - Kreton----------------
#NOTES:
     dance-single:
     Kreton:
     Medium:
     4:
     0.179,0.199,0.022,0.077,0.005,105.000,2.000,7.000,0.000,0.000:
0000
0000
0000
0000
,
0000
0000
0000
0000
,
0000
0000
0000
0000
,
0000
0000
0000
0000
,
1000
0010
0100
0010
,
2000
0000
0000
0000
,
3010
0100
0001
1000
,
0020
0000
0000
0000
,
1030
0010
0100
0001
,
2000
0000
0000
0000
,
3010
0100
0001
1000
,
0020
0000
0000
0000
,
0030
0000
1000
0010
1000
0000
0001
0000
,
0000
0000
0100
0001
0010
0000
0001
0000
,
0000
0000
0001
0010
0001
0000
1000
0000
,
0000
0000
0001
0010
0100
0000
0001
0000
,
0000
0000
1000
0010
0100
0000
0001
0000
,
0000
2200
0000
0000
0000
3300
0000
0000
,
0000
0000
0010
0010
0010
0000
0000
0000
,
1000
0100
1000
0100
2000
0000
0000
3000
,
0010
0100
0010
0000
,
1000
0010
0000
0000
,
0100
0010
0100
0001
,
0100
0000
0000
0001
0000
0000
1000
0000
0010
0000
0000
0000
0000
0000
0000
0000
,
1000
0001
1000
0010
,
0100
0001
1000
0000
,
0010
0010
0010
0000
,
0000
0000
0000
0000
,
0000
0000
1000
0001
0010
0000
0010
0000
,
0000
0000
1000
0010
0100
0000
0001
0000
,
0000
0000
1000
0100
1000
0000
0010
0000
,
0000
0000
0100
0001
0100
0000
0010
0000
,
0000
0000
1000
0010
1000
0000
0001
0000
,
0000
0000
0100
0010
0100
0000
0001
0000
,
0000
0000
0001
0010
0001
0000
1000
0000
,
0000
0000
0010
0100
0010
0000
1000
0000
,
0000
1001
0000
0000
;

//---------------dance-single - Kreton----------------
#NOTES:
     dance-single:
     Kreton:
     Hard:
     6:
     0.388,0.378,0.297,0.308,0.308,192.000,27.000,28.000,0.000,0.000:
0000
0000
0000
0000
,
0000
0000
0000
0000
,
1000
0000
0001
0100
0000
0010
0000
0100
0000
0010
0000
1000
0001
0000
0100
0000
,
0010
0000
1000
0001
0000
0100
0000
0001
0000
0010
0000
0100
0001
0000
0010
0000
,
2000
0000
0000
3020
0000
0000
2030
0000
3002
0000
0000
0203
0000
0000
0320
0000
,
2030
0000
0010
0000
0010
0000
0010
3000
,
0200
0000
0000
0302
0000
0000
2003
0000
3020
0000
0000
0230
0000
0000
0302
0000
,
0203
0000
0010
0000
0001
0000
0001
0300
,
0002
0000
0000
0203
0000
0000
0320
0000
2030
0000
0000
3002
0000
0000
2003
0000
,
3020
0000
1000
0000
1000
0000
0100
0030
,
2000
0000
0000
3020
0000
0000
0230
0000
0302
0000
0000
2003
0000
0000
3020
0000
,
2030
0000
0000
0000
0000
0000
0000
3000
,
0000
0000
0000
0000
0001
0010
0001
0010
0001
0000
0000
1100
0000
0000
0000
0000
,
1000
0000
0000
0000
0010
1000
0010
1000
0010
0000
0000
0000
1001
0000
0000
0000
,
1000
0000
0000
0000
0001
0010
0001
0100
0001
0000
0000
1010
0000
0000
0000
0000
,
0001
0000
0000
0000
1000
0010
0100
0001
1000
0000
0000
0000
0011
0000
0000
0000
,
1000
0000
0000
0000
0001
0010
0100
1000
1000
0000
0000
0011
0000
0000
0000
0000
,
1100
0010
0100
0001
,
0100
0000
0010
0010
0010
0000
0000
0000
,
1000
0100
1000
0000
0001
1000
0001
0000
0100
0000
0000
0000
0000
0000
0000
0000
,
1001
0110
1010
0000
,
0010
0100
0000
0000
,
1010
0101
1010
0100
,
0010
0000
0000
1000
0000
0000
0010
0000
0100
0000
0000
0000
0000
0000
0000
0000
,
1010
0000
1100
0000
1001
0010
0100
0001
,
1000
0010
0100
0000
0000
0000
0000
0000
,
1001
0110
1001
0010
,
0100
0010
1000
0001
,
0100
0000
0000
0000
0001
0010
0100
0010
0001
0000
0000
1100
0000
0000
0000
0000
,
0010
0000
0000
0000
1000
0100
0010
0100
1000
0000
0000
0000
0011
0000
0000
0000
,
0010
0000
0000
0000
0100
0010
0100
0010
0100
0000
0000
0011
0000
0000
0000
0000
,
0001
0000
0000
0000
1000
0010
0100
0010
1000
0000
0000
0011
0000
0000
0000
0000
,
0100
0000
0000
0000
0001
0010
0001
0010
0001
0000
0000
1100
0000
0000
0000
0000
,
0001
0000
0000
0000
0100
0001
1000
0001
0100
0000
0000
0000
0011
0000
0000
0000
,
1000
0000
0000
0000
0010
1000
0010
1000
0010
0000
0000
1100
0000
0000
0000
0000
,
1000
0000
0000
0000
0001
0001
0010
0001
0001
0000
0000
1100
0000
0000
0000
0000
,
1001
0010
0000
0000
;

//---------------dance-single - Kreton----------------
#NOTES:
     dance-single:
     Kreton:
     Beginner:
     1:
     0.052,0.080,0.044,0.000,0.000,29.000,4.000,0.000,0.000,0.000:
0000
0000
0000
0000
,
0000
0000
0000
0000
,
0100
0000
0000
0000
,
0000
0000
0000
0000
,
0010
0000
0000
0000
,
1000
0000
0000
0000
,
0001
0000
0000
0000
,
0100
0000
0000
0000
,
0001
0000
0000
0000
,
0010
0000
0000
0000
,
0100
0000
0000
0000
,
0001
0000
0000
0000
,
0000
0100
0000
0000
,
0000
0010
0000
0000
,
0000
1000
0000
0000
,
0000
0001
0000
0000
,
0000
0100
0000
0000
,
0000
0010
0000
0000
,
0000
0100
0000
0000
,
0000
0000
0000
0000
,
0110
0000
0000
0000
,
0000
0000
0000
0000
,
0110
0000
0000
0000
,
0000
0000
0000
0000
,
0110
0000
0000
0000
,
0000
0000
0000
0000
,
1001
0000
0000
0000
,
0000
0000
0000
0000
,
0000
0010
0000
0000
,
0000
0100
0000
0000
,
0000
0001
0000
0000
,
0000
0100
0000
0000
,
0000
0010
0000
0000
,
0000
0100
0000
0000
,
0000
0001
0000
0000
,
0000
0100
0000
0000
,
0000
0010
0000
0000
;
